isolee we are monster

Wav Pre-gap length 0:00:00.40 Peak level.9 Extraction speed.3 X Track quality 100.0 Test CRC 70AF9721 Copy CRC 70AF9721 Track not present in AccurateRip database Copy OK Track 12 Filename K:TorrentsIsolee - We Are Monster reissue (2011) flac12.
Can't Sleep All Night (6:45).Minimal, Tech House on 03 13th, 2011 no responses, artist : Isolee, title : We Are Monster (Remastered).Wav" wave index 01 00:00:00 track 04 audio title "Madchen Mit Hase" performer "Isolee" isrc demm11100004 index 00 a game for tablet 05:14:07 file "04.Wav Pre-gap length 0:00:00.13 Peak level.8 Extraction speed.5 X Track quality 100.0 Test CRC B59EA477 Copy CRC B59EA477 Track not present in AccurateRip database Copy OK Track 10 Filename K:TorrentsIsolee - We Are Monster reissue (2011) flac10.Isolee Today, isolee Pillowtalk, isolee Cant Sleep All Night, isolee Hermelin.Wav Pre-gap length 0:00:02.06 Peak level.6 Extraction speed.9 X Track quality.9 Test CRC A9E2B47D Copy CRC A9E2B47D Track not present in AccurateRip database Copy OK Track 4 Filename K:TorrentsIsolee - We Are Monster reissue (2011) flac04.
EAC extraction logfile from.
Isolee - Madchen Mit Hase.
Null samples used in CRC calculations : Yes.
Gap handling : Appended x files season 1 episode 1 to previous track.Wav" wave index 01 00:00:00 track 11 audio title "Can't Sleep All Night" performer "Isolee" isrc demm11100011 index 00 10:00:28 file "11.My Hi-Matic (5:58).Do Re Mi (6:22).Read offset correction : 48, overread into Lead-In and Lead-Out :.Isolee Lost, download, more from weekweek.Wav" wave index 01 00:00:00 track 03 audio title "Enrico" performer "Isolee" isrc demm11100003 index 00 05:23:61 file "03.TOC of the extracted CD, track Start Length Start sector End sector :00.00 4:38.